Loading...
Loading...
Loading...

The Accountant (2016) (2160p Bluray x265 HEVC 10bit AAC 7 1 Joy) [UTR]

Seeders: 1
Leechers: 1
Completed: 1

Age: 4 months    Visits: 18    Category: Movies    Size: 6.3 GB

Posted by: UTRCorp    Comments: Read Comments

Info Hash: 61144654D1E9181AD78D88B98D93A6FCD4376D3B



Torrent Description










Media Information

Media Information

Code:

General
Format : Matroska
Format version : Version 4 / Version 2
File size : 6.14 GiB
Duration : 2 h 7 min
Overall bit rate : 6 871 kb/s
Movie name : The Accountant 2016 (2160p x265 10bit S81 Joy)[UTR]
Encoded date : UTC 2018-01-19 03:37:52
Writing application : mkvmerge v19.0.0 ('Brave Captain') 64-bit
Writing library : libebml v1.3.5 + libmatroska v1.4.8
Cover : Yes
Attachments : cover.jpg
Writing frontend : StaxRip v1.7.0.4

Video
ID : 1
Format : HEVC
Format/Info : High Efficiency Video Coding
Format profile : Main [email protected]@Main
Codec ID : V_MPEGH/ISO/HEVC
Duration : 2 h 7 min
Bit rate : 5 999 kb/s
Width : 3 840 pixels
Height : 1 600 pixels
Display aspect ratio : 2.40:1
Frame rate mode : Constant
Frame rate : 23.976 (24000/1001) FPS
Color space : YUV
Chroma subsampling : 4:2:0
Bit depth : 10 bits
Bits/(Pixel*Frame) : 0.041
Stream size : 5.36 GiB (87%)
Writing library : x265 2.5+27-0e168bdeb48b:[Windows][MSVC 1911][64 bit] 10bit
Encoding settings : cpuid=1173503 / frame-threads=3 / numa-pools=8 / wpp / no-pmode / no-pme / no-psnr / ssim / log-level=2 / input-csp=1 / input-res=3840x1600 / interlace=0 / total-frames=183998 / level-idc=0 / high-tier=1 / uhd-bd=0 / ref=3 / no-allow-non-conformance / repeat-headers / annexb / no-aud / no-hrd / info / hash=0 / no-temporal-layers / open-gop / min-keyint=23 / keyint=250 / bframes=4 / b-adapt=2 / b-pyramid / bframe-bias=0 / rc-lookahead=20 / lookahead-slices=8 / scenecut=40 / no-intra-refresh / ctu=64 / min-cu-size=8 / no-rect / no-amp / max-tu-size=32 / tu-inter-depth=1 / tu-intra-depth=1 / limit-tu=0 / rdoq-level=1 / dynamic-rd=0.00 / no-ssim-rd / signhide / no-tskip / nr-intra=0 / nr-inter=0 / no-constrained-intra / strong-intra-smoothing / max-merge=2 / limit-refs=3 / no-limit-modes / me=1 / subme=2 / merange=57 / temporal-mvp / weightp / weightb / no-analyze-src-pics / deblock=2:2 / sao / sao-non-deblock / rd=3 / no-early-skip / rskip / no-fast-intra / no-tskip-fast / no-cu-lossless / b-intra / no-splitrd-skip / rdpenalty=0 / psy-rd=2.00 / psy-rdoq=0.00 / no-rd-refine / analysis-reuse-mode=0 / no-lossless / cbqpoffs=0 / crqpoffs=0 / rc=abr / bitrate=6000 / qcomp=0.60 / qpstep=4 / stats-write=0 / stats-read=2 / cplxblur=20.0 / qblur=0.5 / ipratio=1.40 / pbratio=1.30 / aq-mode=3 / aq-strength=1.00 / cutree / zone-count=0 / no-strict-cbr / qg-size=32 / no-rc-grain / qpmax=69 / qpmin=0 / no-const-vbv / sar=0 / overscan=0 / videoformat=5 / range=0 / colorprim=9 / transfer=16 / colormatrix=9 / chromaloc=0 / display-window=0 / master-display=G(13250,34500)B(7500,3000)R(34000,16000)WP(15635,16450)L(40000000,50) / max-cll=0,0 / min-luma=0 / max-luma=1023 / log2-max-poc-lsb=8 / vui-timing-info / vui-hrd-info / slices=1 / opt-qp-pps / opt-ref-list-length-pps / multi-pass-opt-rps / scenecut-bias=0.05 / no-opt-cu-delta-qp / no-aq-motion / hdr / no-hdr-opt / no-dhdr10-opt / analysis-reuse-level=5 / scale-factor=0 / refine-intra=0 / refine-inter=0 / refine-mv=0 / limit-sao / ctu-info=0
Default : Yes
Forced : No
Color range : Limited
Color primaries : BT.2020
Transfer characteristics : SMPTE ST 2084
Matrix coefficients : BT.2020 non-constant
Mastering display color primaries : R: x=0.680000 y=0.320000, G: x=0.265000 y=0.690000, B: x=0.150000 y=0.060000, White point: x=0.312700 y=0.329000
Mastering display luminance : min: 0.0050 cd/m2, max: 4000.0000 cd/m2

Audio #1
ID : 2
Format : AAC
Format/Info : Advanced Audio Codec
Format profile : LC
Codec ID : A_AAC
Duration : 2 h 7 min
Bit rate : 384 kb/s
Channel(s) : 8 channels
Channel positions : Front: L C R, Side: 4, LFE
Sampling rate : 48.0 kHz
Frame rate : 46.875 FPS (1024 spf)
Compression mode : Lossy
Delay relative to video : 20 ms
Stream size : 347 MiB (6%)
Language : English
Default : No
Forced : No

Audio #2
ID : 3
Format : AAC
Format/Info : Advanced Audio Codec
Format profile : LC
Codec ID : A_AAC
Duration : 2 h 7 min
Bit rate : 88.9 kb/s
Channel(s) : 2 channels
Channel positions : Front: L R
Sampling rate : 48.0 kHz
Frame rate : 46.875 FPS (1024 spf)
Compression mode : Lossy
Delay relative to video : 9 ms
Stream size : 81.3 MiB (1%)
Language : German
Default : No
Forced : No

Audio #3
ID : 4
Format : AAC
Format/Info : Advanced Audio Codec
Format profile : LC
Codec ID : A_AAC
Duration : 2 h 7 min
Bit rate : 89.8 kb/s
Channel(s) : 2 channels
Channel positions : Front: L R
Sampling rate : 48.0 kHz
Frame rate : 46.875 FPS (1024 spf)
Compression mode : Lossy
Delay relative to video : 9 ms
Stream size : 82.2 MiB (1%)
Language : Spanish
Default : No
Forced : No

Audio #4
ID : 5
Format : AAC
Format/Info : Advanced Audio Codec
Format profile : LC
Codec ID : A_AAC
Duration : 2 h 7 min
Bit rate : 89.9 kb/s
Channel(s) : 2 channels
Channel positions : Front: L R
Sampling rate : 48.0 kHz
Frame rate : 46.875 FPS (1024 spf)
Compression mode : Lossy
Delay relative to video : 9 ms
Stream size : 82.2 MiB (1%)
Language : Japanese
Default : No
Forced : No

Subtitle #1
ID : 6
Format : PGS
Muxing mode : zlib
Codec ID : S_HDMV/PGS
Codec ID/Info : Picture based subtitle format used on BDs/HD-DVDs
Duration : 2 h 7 min
Bit rate : 34.5 kb/s
Count of elements : 3404
Stream size : 31.4 MiB (0%)
Language : English
Default : No
Forced : No

Subtitle #2
ID : 7
Format : VobSub
Muxing mode : zlib
Codec ID : S_VOBSUB
Codec ID/Info : Picture based subtitle format used on DVDs
Duration : 1 h 58 min
Bit rate : 9 141 b/s
Count of elements : 2113
Stream size : 7.77 MiB (0%)
Language : Japanese
Default : No
Forced : No

Subtitle #3
ID : 8
Format : VobSub
Muxing mode : zlib
Codec ID : S_VOBSUB
Codec ID/Info : Picture based subtitle format used on DVDs
Duration : 1 h 53 min
Bit rate : 449 b/s
Count of elements : 249
Stream size : 373 KiB (0%)
Language : Japanese
Default : No
Forced : No

Subtitle #4
ID : 9
Format : VobSub
Muxing mode : zlib
Codec ID : S_VOBSUB
Codec ID/Info : Picture based subtitle format used on DVDs
Duration : 2 h 7 min
Bit rate : 7 666 b/s
Count of elements : 1510
Stream size : 6.97 MiB (0%)
Language : French
Default : No
Forced : No

Subtitle #5
ID : 10
Format : VobSub
Muxing mode : zlib
Codec ID : S_VOBSUB
Codec ID/Info : Picture based subtitle format used on DVDs
Duration : 2 h 7 min
Bit rate : 11.4 kb/s
Count of elements : 1738
Stream size : 10.4 MiB (0%)
Language : German
Default : No
Forced : No

Subtitle #6
ID : 11
Format : VobSub
Muxing mode : zlib
Codec ID : S_VOBSUB
Codec ID/Info : Picture based subtitle format used on DVDs
Duration : 2 h 7 min
Bit rate : 9 451 b/s
Count of elements : 1736
Stream size : 8.60 MiB (0%)
Language : Italian
Default : No
Forced : No

Subtitle #7
ID : 12
Format : VobSub
Muxing mode : zlib
Codec ID : S_VOBSUB
Codec ID/Info : Picture based subtitle format used on DVDs
Duration : 2 h 7 min
Bit rate : 8 709 b/s
Count of elements : 1524
Stream size : 7.92 MiB (0%)
Language : Spanish
Default : No
Forced : No

Subtitle #8
ID : 13
Format : VobSub
Muxing mode : zlib
Codec ID : S_VOBSUB
Codec ID/Info : Picture based subtitle format used on DVDs
Duration : 2 h 7 min
Bit rate : 7 426 b/s
Count of elements : 1274
Stream size : 6.75 MiB (0%)
Language : Dutch
Default : No
Forced : No

Subtitle #9
ID : 14
Format : VobSub
Muxing mode : zlib
Codec ID : S_VOBSUB
Codec ID/Info : Picture based subtitle format used on DVDs
Duration : 2 h 7 min
Bit rate : 7 924 b/s
Count of elements : 1541
Stream size : 7.21 MiB (0%)
Language : Chinese
Default : No
Forced : No

Subtitle #10
ID : 15
Format : VobSub
Muxing mode : zlib
Codec ID : S_VOBSUB
Codec ID/Info : Picture based subtitle format used on DVDs
Duration : 2 h 7 min
Bit rate : 7 445 b/s
Count of elements : 1539
Stream size : 6.78 MiB (0%)
Language : Chinese
Default : No
Forced : No

Subtitle #11
ID : 16
Format : VobSub
Muxing mode : zlib
Codec ID : S_VOBSUB
Codec ID/Info : Picture based subtitle format used on DVDs
Duration : 2 h 7 min
Bit rate : 6 198 b/s
Count of elements : 1519
Stream size : 5.64 MiB (0%)
Language : Korean
Default : No
Forced : No

Subtitle #12
ID : 17
Format : VobSub
Muxing mode : zlib
Codec ID : S_VOBSUB
Codec ID/Info : Picture based subtitle format used on DVDs
Duration : 2 h 7 min
Bit rate : 8 969 b/s
Count of elements : 1543
Stream size : 8.16 MiB (0%)
Language : Spanish
Default : No
Forced : No

Subtitle #13
ID : 18
Format : VobSub
Muxing mode : zlib
Codec ID : S_VOBSUB
Codec ID/Info : Picture based subtitle format used on DVDs
Duration : 2 h 7 min
Bit rate : 8 835 b/s
Count of elements : 1531
Stream size : 8.04 MiB (0%)
Language : Portuguese
Default : No
Forced : No

Subtitle #14
ID : 19
Format : VobSub
Muxing mode : zlib
Codec ID : S_VOBSUB
Codec ID/Info : Picture based subtitle format used on DVDs
Duration : 2 h 7 min
Bit rate : 4 948 b/s
Count of elements : 1548
Stream size : 4.50 MiB (0%)
Language : Arabic
Default : No
Forced : No

Subtitle #15
ID : 20
Format : VobSub
Muxing mode : zlib
Codec ID : S_VOBSUB
Codec ID/Info : Picture based subtitle format used on DVDs
Duration : 2 h 7 min
Bit rate : 8 431 b/s
Count of elements : 1551
Stream size : 7.67 MiB (0%)
Language : Czech
Default : No
Forced : No

Subtitle #16
ID : 21
Format : VobSub
Muxing mode : zlib
Codec ID : S_VOBSUB
Codec ID/Info : Picture based subtitle format used on DVDs
Duration : 2 h 7 min
Bit rate : 8 513 b/s
Count of elements : 1190
Stream size : 7.74 MiB (0%)
Language : Danish
Default : No
Forced : No

Subtitle #17
ID : 22
Format : VobSub
Muxing mode : zlib
Codec ID : S_VOBSUB
Codec ID/Info : Picture based subtitle format used on DVDs
Duration : 2 h 7 min
Bit rate : 7 490 b/s
Count of elements : 1526
Stream size : 6.82 MiB (0%)
Language : Finnish
Default : No
Forced : No

Subtitle #18
ID : 23
Format : VobSub
Muxing mode : zlib
Codec ID : S_VOBSUB
Codec ID/Info : Picture based subtitle format used on DVDs
Duration : 2 h 7 min
Bit rate : 8 037 b/s
Count of elements : 1334
Stream size : 7.31 MiB (0%)
Language : Norwegian Bokmal
Default : No
Forced : No

Subtitle #19
ID : 24
Format : VobSub
Muxing mode : zlib
Codec ID : S_VOBSUB
Codec ID/Info : Picture based subtitle format used on DVDs
Duration : 2 h 7 min
Bit rate : 6 764 b/s
Count of elements : 1432
Stream size : 6.15 MiB (0%)
Language : Polish
Default : No
Forced : No

Subtitle #20
ID : 25
Format : VobSub
Muxing mode : zlib
Codec ID : S_VOBSUB
Codec ID/Info : Picture based subtitle format used on DVDs
Duration : 2 h 7 min
Bit rate : 8 311 b/s
Count of elements : 1521
Stream size : 7.56 MiB (0%)
Language : Swedish
Default : No
Forced : No

Subtitle #21
ID : 26
Format : VobSub
Muxing mode : zlib
Codec ID : S_VOBSUB
Codec ID/Info : Picture based subtitle format used on DVDs
Duration : 2 h 2 min
Bit rate : 95 b/s
Count of elements : 11
Stream size : 85.9 KiB (0%)
Language : French
Default : No
Forced : No

Subtitle #22
ID : 27
Format : VobSub
Muxing mode : zlib
Codec ID : S_VOBSUB
Codec ID/Info : Picture based subtitle format used on DVDs
Duration : 2 h 5 min
Bit rate : 104 b/s
Count of elements : 15
Stream size : 96.1 KiB (0%)
Language : French
Default : No
Forced : No

Subtitle #23
ID : 28
Format : VobSub
Muxing mode : zlib
Codec ID : S_VOBSUB
Codec ID/Info : Picture based subtitle format used on DVDs
Duration : 2 h 5 min
Bit rate : 55 b/s
Count of elements : 8
Stream size : 51.2 KiB (0%)
Language : German
Default : No
Forced : No

Subtitle #24
ID : 29
Format : VobSub
Muxing mode : zlib
Codec ID : S_VOBSUB
Codec ID/Info : Picture based subtitle format used on DVDs
Duration : 2 h 5 min
Bit rate : 195 b/s
Count of elements : 28
Stream size : 180 KiB (0%)
Language : Italian
Default : No
Forced : No

Subtitle #25
ID : 30
Format : VobSub
Muxing mode : zlib
Codec ID : S_VOBSUB
Codec ID/Info : Picture based subtitle format used on DVDs
Duration : 2 h 5 min
Bit rate : 84 b/s
Count of elements : 13
Stream size : 77.5 KiB (0%)
Language : Spanish
Default : No
Forced : No

Subtitle #26
ID : 31
Format : VobSub
Muxing mode : zlib
Codec ID : S_VOBSUB
Codec ID/Info : Picture based subtitle format used on DVDs
Duration : 2 h 2 min
Bit rate : 207 b/s
Count of elements : 27
Stream size : 186 KiB (0%)
Language : Spanish
Default : No
Forced : No

Subtitle #27
ID : 32
Format : VobSub
Muxing mode : zlib
Codec ID : S_VOBSUB
Codec ID/Info : Picture based subtitle format used on DVDs
Duration : 1 h 49 min
Bit rate : 191 b/s
Count of elements : 24
Stream size : 154 KiB (0%)
Language : Portuguese
Default : No
Forced : No

Subtitle #28
ID : 33
Format : VobSub
Muxing mode : zlib
Codec ID : S_VOBSUB
Codec ID/Info : Picture based subtitle format used on DVDs
Duration : 2 h 2 min
Bit rate : 327 b/s
Count of elements : 45
Stream size : 294 KiB (0%)
Language : Czech
Default : No
Forced : No

Subtitle #29
ID : 34
Format : VobSub
Muxing mode : zlib
Codec ID : S_VOBSUB
Codec ID/Info : Picture based subtitle format used on DVDs
Duration : 1 h 35 min
Bit rate : 24 b/s
Count of elements : 5
Stream size : 17.3 KiB (0%)
Language : Polish
Default : No
Forced : No

Subtitle #30
ID : 35
Format : VobSub
Muxing mode : zlib
Codec ID : S_VOBSUB
Codec ID/Info : Picture based subtitle format used on DVDs
Duration : 1 h 58 min
Bit rate : 9 141 b/s
Count of elements : 2113
Stream size : 7.77 MiB (0%)
Language : Japanese
Default : No
Forced : No

Subtitle #31
ID : 36
Format : VobSub
Muxing mode : zlib
Codec ID : S_VOBSUB
Codec ID/Info : Picture based subtitle format used on DVDs
Duration : 2 h 7 min
Bit rate : 10.1 kb/s
Count of elements : 1702
Stream size : 9.16 MiB (0%)
Language : English
Default : No
Forced : No

Subtitle #32
ID : 37
Format : VobSub
Muxing mode : zlib
Codec ID : S_VOBSUB
Codec ID/Info : Picture based subtitle format used on DVDs
Duration : 1 h 53 min
Bit rate : 449 b/s
Count of elements : 249
Stream size : 373 KiB (0%)
Language : Japanese
Default : No
Forced : No

Subtitle #33
ID : 38
Format : VobSub
Muxing mode : zlib
Codec ID : S_VOBSUB
Codec ID/Info : Picture based subtitle format used on DVDs
Duration : 2 h 7 min
Bit rate : 7 666 b/s
Count of elements : 1510
Stream size : 6.97 MiB (0%)
Language : French
Default : No
Forced : No

Subtitle #34
ID : 39
Format : VobSub
Muxing mode : zlib
Codec ID : S_VOBSUB
Codec ID/Info : Picture based subtitle format used on DVDs
Duration : 2 h 7 min
Bit rate : 11.4 kb/s
Count of elements : 1738
Stream size : 10.4 MiB (0%)
Language : German
Default : No
Forced : No

Subtitle #35
ID : 40
Format : VobSub
Muxing mode : zlib
Codec ID : S_VOBSUB
Codec ID/Info : Picture based subtitle format used on DVDs
Duration : 2 h 7 min
Bit rate : 9 451 b/s
Count of elements : 1736
Stream size : 8.60 MiB (0%)
Language : Italian
Default : No
Forced : No

Subtitle #36
ID : 41
Format : VobSub
Muxing mode : zlib
Codec ID : S_VOBSUB
Codec ID/Info : Picture based subtitle format used on DVDs
Duration : 2 h 7 min
Bit rate : 8 709 b/s
Count of elements : 1524
Stream size : 7.92 MiB (0%)
Language : Spanish
Default : No
Forced : No

Subtitle #37
ID : 42
Format : VobSub
Muxing mode : zlib
Codec ID : S_VOBSUB
Codec ID/Info : Picture based subtitle format used on DVDs
Duration : 2 h 7 min
Bit rate : 7 426 b/s
Count of elements : 1274
Stream size : 6.75 MiB (0%)
Language : Dutch
Default : No
Forced : No

Subtitle #38
ID : 43
Format : VobSub
Muxing mode : zlib
Codec ID : S_VOBSUB
Codec ID/Info : Picture based subtitle format used on DVDs
Duration : 2 h 7 min
Bit rate : 7 924 b/s
Count of elements : 1541
Stream size : 7.21 MiB (0%)
Language : Chinese
Default : No
Forced : No

Subtitle #39
ID : 44
Format : VobSub
Muxing mode : zlib
Codec ID : S_VOBSUB
Codec ID/Info : Picture based subtitle format used on DVDs
Duration : 2 h 7 min
Bit rate : 7 445 b/s
Count of elements : 1539
Stream size : 6.78 MiB (0%)
Language : Chinese
Default : No
Forced : No

Subtitle #40
ID : 45
Format : VobSub
Muxing mode : zlib
Codec ID : S_VOBSUB
Codec ID/Info : Picture based subtitle format used on DVDs
Duration : 2 h 7 min
Bit rate : 6 198 b/s
Count of elements : 1519
Stream size : 5.64 MiB (0%)
Language : Korean
Default : No
Forced : No

Subtitle #41
ID : 46
Format : VobSub
Muxing mode : zlib
Codec ID : S_VOBSUB
Codec ID/Info : Picture based subtitle format used on DVDs
Duration : 2 h 7 min
Bit rate : 8 969 b/s
Count of elements : 1543
Stream size : 8.16 MiB (0%)
Language : Spanish
Default : No
Forced : No

Subtitle #42
ID : 47
Format : VobSub
Muxing mode : zlib
Codec ID : S_VOBSUB
Codec ID/Info : Picture based subtitle format used on DVDs
Duration : 2 h 7 min
Bit rate : 8 835 b/s
Count of elements : 1531
Stream size : 8.04 MiB (0%)
Language : Portuguese
Default : No
Forced : No

Subtitle #43
ID : 48
Format : VobSub
Muxing mode : zlib
Codec ID : S_VOBSUB
Codec ID/Info : Picture based subtitle format used on DVDs
Duration : 2 h 7 min
Bit rate : 4 948 b/s
Count of elements : 1548
Stream size : 4.50 MiB (0%)
Language : Arabic
Default : No
Forced : No

Subtitle #44
ID : 49
Format : VobSub
Muxing mode : zlib
Codec ID : S_VOBSUB
Codec ID/Info : Picture based subtitle format used on DVDs
Duration : 2 h 7 min
Bit rate : 8 431 b/s
Count of elements : 1551
Stream size : 7.67 MiB (0%)
Language : Czech
Default : No
Forced : No

Subtitle #45
ID : 50
Format : VobSub
Muxing mode : zlib
Codec ID : S_VOBSUB
Codec ID/Info : Picture based subtitle format used on DVDs
Duration : 2 h 7 min
Bit rate : 8 513 b/s
Count of elements : 1190
Stream size : 7.74 MiB (0%)
Language : Danish
Default : No
Forced : No

Subtitle #46
ID : 51
Format : VobSub
Muxing mode : zlib
Codec ID : S_VOBSUB
Codec ID/Info : Picture based subtitle format used on DVDs
Duration : 2 h 7 min
Bit rate : 7 490 b/s
Count of elements : 1526
Stream size : 6.82 MiB (0%)
Language : Finnish
Default : No
Forced : No

Subtitle #47
ID : 52
Format : VobSub
Muxing mode : zlib
Codec ID : S_VOBSUB
Codec ID/Info : Picture based subtitle format used on DVDs
Duration : 2 h 7 min
Bit rate : 8 037 b/s
Count of elements : 1334
Stream size : 7.31 MiB (0%)
Language : Norwegian Bokmal
Default : No
Forced : No

Subtitle #48
ID : 53
Format : VobSub
Muxing mode : zlib
Codec ID : S_VOBSUB
Codec ID/Info : Picture based subtitle format used on DVDs
Duration : 2 h 7 min
Bit rate : 6 764 b/s
Count of elements : 1432
Stream size : 6.15 MiB (0%)
Language : Polish
Default : No
Forced : No

Subtitle #49
ID : 54
Format : VobSub
Muxing mode : zlib
Codec ID : S_VOBSUB
Codec ID/Info : Picture based subtitle format used on DVDs
Duration : 2 h 7 min
Bit rate : 8 311 b/s
Count of elements : 1521
Stream size : 7.56 MiB (0%)
Language : Swedish
Default : No
Forced : No

Subtitle #50
ID : 55
Format : VobSub
Muxing mode : zlib
Codec ID : S_VOBSUB
Codec ID/Info : Picture based subtitle format used on DVDs
Duration : 2 h 2 min
Bit rate : 95 b/s
Count of elements : 11
Stream size : 85.9 KiB (0%)
Language : French
Default : No
Forced : No

Text #51
ID : 56
Format : VobSub
Muxing mode : zlib
Codec ID : S_VOBSUB
Codec ID/Info : Picture based subtitle format used on DVDs
Duration : 2 h 5 min
Bit rate : 104 b/s
Count of elements : 15
Stream size : 96.1 KiB (0%)
Language : French
Default : No
Forced : No

Text #52
ID : 57
Format : VobSub
Muxing mode : zlib
Codec ID : S_VOBSUB
Codec ID/Info : Picture based subtitle format used on DVDs
Duration : 2 h 5 min
Bit rate : 55 b/s
Count of elements : 8
Stream size : 51.2 KiB (0%)
Language : German
Default : No
Forced : No

Text #53
ID : 58
Format : VobSub
Muxing mode : zlib
Codec ID : S_VOBSUB
Codec ID/Info : Picture based subtitle format used on DVDs
Duration : 2 h 5 min
Bit rate : 195 b/s
Count of elements : 28
Stream size : 180 KiB (0%)
Language : Italian
Default : No
Forced : No

Text #54
ID : 59
Format : VobSub
Muxing mode : zlib
Codec ID : S_VOBSUB
Codec ID/Info : Picture based subtitle format used on DVDs
Duration : 2 h 5 min
Bit rate : 84 b/s
Count of elements : 13
Stream size : 77.5 KiB (0%)
Language : Spanish
Default : No
Forced : No

Text #55
ID : 60
Format : VobSub
Muxing mode : zlib
Codec ID : S_VOBSUB
Codec ID/Info : Picture based subtitle format used on DVDs
Duration : 2 h 2 min
Bit rate : 207 b/s
Count of elements : 27
Stream size : 186 KiB (0%)
Language : Spanish
Default : No
Forced : No

Text #56
ID : 61
Format : VobSub
Muxing mode : zlib
Codec ID : S_VOBSUB
Codec ID/Info : Picture based subtitle format used on DVDs
Duration : 1 h 49 min
Bit rate : 191 b/s
Count of elements : 24
Stream size : 154 KiB (0%)
Language : Portuguese
Default : No
Forced : No

Text #57
ID : 62
Format : VobSub
Muxing mode : zlib
Codec ID : S_VOBSUB
Codec ID/Info : Picture based subtitle format used on DVDs
Duration : 2 h 2 min
Bit rate : 327 b/s
Count of elements : 45
Stream size : 294 KiB (0%)
Language : Czech
Default : No
Forced : No

Text #58
ID : 63
Format : VobSub
Muxing mode : zlib
Codec ID : S_VOBSUB
Codec ID/Info : Picture based subtitle format used on DVDs
Duration : 1 h 35 min
Bit rate : 24 b/s
Count of elements : 5
Stream size : 17.3 KiB (0%)
Language : Polish
Default : No
Forced : No

Text #59
ID : 64
Format : UTF-8
Codec ID : S_TEXT/UTF8
Codec ID/Info : UTF-8 Plain Text
Duration : 2 h 2 min
Bit rate : 83 b/s
Count of elements : 1391
Stream size : 74.5 KiB (0%)
Language : Arabic
Default : No
Forced : No

Text #60
ID : 65
Format : UTF-8
Codec ID : S_TEXT/UTF8
Codec ID/Info : UTF-8 Plain Text
Duration : 1 h 59 min
Bit rate : 49 b/s
Count of elements : 1400
Stream size : 43.3 KiB (0%)
Language : Chinese
Default : No
Forced : No

Text #61
ID : 66
Format : UTF-8
Codec ID : S_TEXT/UTF8
Codec ID/Info : UTF-8 Plain Text
Duration : 2 h 1 min
Bit rate : 54 b/s
Count of elements : 1180
Stream size : 48.5 KiB (0%)
Language : Danish
Default : No
Forced : No

Text #62
ID : 67
Format : UTF-8
Codec ID : S_TEXT/UTF8
Codec ID/Info : UTF-8 Plain Text
Duration : 2 h 1 min
Bit rate : 53 b/s
Count of elements : 1077
Stream size : 47.5 KiB (0%)
Language : Dutch
Default : No
Forced : No

Text #63
ID : 68
Format : UTF-8
Codec ID : S_TEXT/UTF8
Codec ID/Info : UTF-8 Plain Text
Duration : 2 h 7 min
Bit rate : 83 b/s
Count of elements : 1514
Stream size : 78.4 KiB (0%)
Language : Persian
Default : No
Forced : No

Text #64
ID : 69
Format : UTF-8
Codec ID : S_TEXT/UTF8
Codec ID/Info : UTF-8 Plain Text
Duration : 1 h 58 min
Bit rate : 97 b/s
Count of elements : 1346
Stream size : 84.9 KiB (0%)
Language : Greek
Default : No
Forced : No

Text #65
ID : 70
Format : UTF-8
Codec ID : S_TEXT/UTF8
Codec ID/Info : UTF-8 Plain Text
Duration : 2 h 1 min
Bit rate : 103 b/s
Count of elements : 1412
Stream size : 92.5 KiB (0%)
Language : Indonesian
Default : No
Forced : No

Text #66
ID : 71
Format : UTF-8
Codec ID : S_TEXT/UTF8
Codec ID/Info : UTF-8 Plain Text
Duration : 2 h 1 min
Bit rate : 59 b/s
Count of elements : 1427
Stream size : 52.7 KiB (0%)
Language : Malay
Default : No
Forced : No

Text #67
ID : 72
Format : UTF-8
Codec ID : S_TEXT/UTF8
Codec ID/Info : UTF-8 Plain Text
Duration : 2 h 1 min
Bit rate : 58 b/s
Count of elements : 1227
Stream size : 51.7 KiB (0%)
Language : Norwegian
Default : No
Forced : No

Text #68
ID : 73
Format : UTF-8
Codec ID : S_TEXT/UTF8
Codec ID/Info : UTF-8 Plain Text
Duration : 1 h 59 min
Bit rate : 61 b/s
Count of elements : 1442
Stream size : 53.9 KiB (0%)
Language : Romanian
Default : No
Forced : No

Text #69
ID : 74
Format : UTF-8
Codec ID : S_TEXT/UTF8
Codec ID/Info : UTF-8 Plain Text
Duration : 2 h 1 min
Bit rate : 129 b/s
Count of elements : 1517
Stream size : 115 KiB (0%)
Language : Thai
Default : No
Forced : No

Text #70
ID : 75
Format : UTF-8
Codec ID : S_TEXT/UTF8
Codec ID/Info : UTF-8 Plain Text
Duration : 2 h 0 min
Bit rate : 60 b/s
Count of elements : 1314
Stream size : 53.7 KiB (0%)
Language : Turkish
Default : No
Forced : No

Text #71
ID : 76
Format : UTF-8
Codec ID : S_TEXT/UTF8
Codec ID/Info : UTF-8 Plain Text
Duration : 1 h 59 min
Bit rate : 79 b/s
Count of elements : 1527
Stream size : 69.8 KiB (0%)
Language : Vietnamese
Default : No
Forced : No

Menu
00:00:00.000 : en:Chapter 1
00:13:01.447 : en:Chapter 2
00:20:36.276 : en:Chapter 3
00:29:30.393 : en:Chapter 4
00:38:44.655 : en:Chapter 5
00:49:33.679 : en:Chapter 6
01:00:05.435 : en:Chapter 7
01:13:39.706 : en:Chapter 8
01:25:57.068 : en:Chapter 9
01:39:15.658 : en:Chapter 10
01:54:31.155 : en:Chapter 11
02:01:40.251 : en:Chapter 12



Source Information

Code:

Release:
Unknown Source/NO-GROUP




Recently Added Torrents in Movies

Trackers List

tracker name
udp://tracker.opentrackr.org:1337/announce
udp://tracker.leechers-paradise.org:6969/announce
udp://tracker.pirateparty.gr:6969/announce
udp://tracker.coppersurfer.tk:6969/announce
udp://tracker.mg64.net:2710/announce
udp://tracker.zer0day.to:1337/announce

Sharing Widget


Download torrent
6.3 GB
Seeders: 1
Leechers: 1
The Accountant (2016) (2160p Bluray x265 HEVC 10bit AAC 7 1 Joy) [UTR]